PDA

Ver la versión completa : Capitan America: El Soldado del Invierno [Remux][Ingles/Español 5.1][2014][Zippyshare]



AquaRR
09/05/2019, 08:30
[Only registered and activated users can see links]

Titulo: Capitan America: El Soldado del Invierno
(Original: "Captain America: The Winter Soldier")

IMDb: [Only registered and activated users can see links] ([Only registered and activated users can see links])

Sinopsis: Despues de los catastroficos eventos en Nueva York con los Vengadores, Steve Rogers, tambien conocido como el Capitan America, vive tranquilamente en Washington, D.C. y tratando de ajustarse al mundo moderno. Pero cuando un colega de S.H.I.E.L.D. ataca, Steve se ve enredado en una red de intriga que pone al mundo en riesgo.

Directores: Anthony Russo, Joe Russo

Reparto: Chris Evans, Samuel L. Jackson, Scarlett Johansson, Robert Redford, Sebastian Stan, Anthony Mackie, Cobie Smulders, Frank Grillo, Maximiliano Hernández, Emily VanCamp, Hayley Atwell, Toby Jones, Stan Lee, Callan Mulvey, Jenny Agutter.

Año: 2014

Duracion: 136 min

[Only registered and activated users can see links]

Capturas:

[Only registered and activated users can see links]

[Only registered and activated users can see links]

[Only registered and activated users can see links]

Enlace para ir a una galeria para ver las capturas en resolucion y calidad original:
[Only registered and activated users can see links] ([Only registered and activated users can see links])
[Only registered and activated users can see links]

Informacion:


Video
ID : 1
Format : AVC
Format/Info : Advanced Video Codec
[Only registered and activated users can see links]
Format settings : CABAC / 4 Ref Frames
Format settings, CABAC : Yes
Format settings, RefFrames : 4 frames
Codec ID : V_MPEG4/ISO/AVC
Duration : 2 h 15 min
Bit rate mode : Variable
Bit rate : 28.6 Mb/s
Maximum bit rate : 32.7 Mb/s
Width : 1 920 pixels
Height : 1 080 pixels
Display aspect ratio : 16:9
Frame rate mode : Constant
Frame rate : 23.976 (24000/1001) FPS
Color space : YUV
Chroma subsampling : 4:2:0
Bit depth : 8 bits
Scan type : Progressive
Bits/(Pixel*Frame) : 0.575
Stream size : 27.1 GiB (93%)
Default : Yes
Forced : No

Audio #1
ID : 2
Format : AC-3
Format/Info : Audio Coding 3
Commercial name : Dolby Digital
Codec ID : A_AC3
Duration : 2 h 15 min
Bit rate mode : Constant
Bit rate : 640 kb/s
Channel(s) : 6 channels
Channel layout : L R C LFE Ls Rs
Sampling rate : 48.0 kHz
Frame rate : 31.250 FPS (1536 SPF)
Bit depth : 16 bits
Compression mode : Lossy
Stream size : 622 MiB (2%)
Language : Spanish
Service kind : Complete Main
Default : No
Forced : No

Audio #2
ID : 3
Format : DTS
Format/Info : Digital Theater Systems
Codec ID : A_DTS
Duration : 2 h 15 min
Bit rate mode : Constant
Bit rate : 1 509 kb/s
Channel(s) : 6 channels
Channel layout : C L R Ls Rs LFE
Sampling rate : 48.0 kHz
Frame rate : 93.750 FPS (512 SPF)
Bit depth : 24 bits
Compression mode : Lossy
Stream size : 1.43 GiB (5%)
Language : English
Default : Yes
Forced : No

Text #1
ID : 4
Format : PGS
Muxing mode : zlib
Codec ID : S_HDMV/PGS
Codec ID/Info : Picture based subtitle format used on BDs/HD-DVDs
Duration : 2 h 14 min
Bit rate : 31.5 kb/s
Count of elements : 3096
Stream size : 30.4 MiB (0%)
Title : Español-PGS
Language : Spanish
Default : No
Forced : No

Text #2
ID : 5
Format : PGS
Muxing mode : zlib
Codec ID : S_HDMV/PGS
Codec ID/Info : Picture based subtitle format used on BDs/HD-DVDs
Duration : 2 h 8 min
Bit rate : 30.8 kb/s
Count of elements : 2974
Stream size : 28.4 MiB (0%)
Title : Ingles-PGS
Language : English
Default : No
Forced : No

Text #3
ID : 6
Format : PGS
Muxing mode : zlib
Codec ID : S_HDMV/PGS
Codec ID/Info : Picture based subtitle format used on BDs/HD-DVDs
Duration : 2 h 12 min
Bit rate : 623 b/s
Count of elements : 76
Stream size : 604 KiB (0%)
Title : Español-FORZADO-PGS
Language : Spanish
Default : No
Forced : No

Text #4
ID : 7
Format : PGS
Muxing mode : zlib
Codec ID : S_HDMV/PGS
Codec ID/Info : Picture based subtitle format used on BDs/HD-DVDs
Duration : 1 h 12 min
Bit rate : 628 b/s
Count of elements : 56
Stream size : 333 KiB (0%)
Title : Ingles-FORZADO-PGS
Language : English
Default : No
Forced : No
[Only registered and activated users can see links]

Enlaces:

Peso total: 31 Gb
Peso comprimido: 59 partes de 500 Mb y 1 de 381 Mb

Enlace para ver los links:
[Only registered and activated users can see links] ([Only registered and activated users can see links])
Servidor: Zippyshare

Nota: El audio por defecto es del idioma Ingles, pero puedes cambiarlo a Español con tu reproductor.
[Only registered and activated users can see links]

Contraseña (para keeplinks y para descomprimir): aquabitesthedust

[Only registered and activated users can see links]

Lagartoman
09/05/2019, 13:53
Excelente aporte