Titulo Original: Nick Fury: Agent of Shield (TV)
Otro Titulo: Nick Fury agente de Shield
País: EEUU.
Año: 1998.
Duración: 90 min.
Género: Accion.
Interpretación: David Hasselhoff, Lisa Rinna, Sandra Hess, Neil Roberts, Gary Chalk, Tracy Waterhouse, Tom McBeath, Ron Canada, Rober R. Cross, Scott Heindl, Adrian Hughes.



Código:
Audio: Ingles
Subtitulos: Español-Latino
Formato: .AVI (DivX - DVDRip)
Tamaño: 699MB (la pelicula, sub. aparte)
Nick furia; agente de S H I E L D (Nick fury; agent of SHIELD) 1998\Nick furia; agente de S.H.I.E.L.D. 1998.avi General Complete name : C:\Users\Lagartoman\Desktop\Descargas\Nick furia; agente de S H I E L D (Nick fury; agent of SHIELD) 1998\Nick furia; agente de S.H.I.E.L.D. 1998.avi Format : AVI Format/Info : Audio Video Interleave File size : 700 MiB Duration : 1h 30mn Overall bit rate : 1 085 Kbps Writing application : VirtualDubMod 1.5.4.1 (build 2178/release) Writing library : VirtualDubMod build 2178/release Video #0 ID : 0 Format : MPEG-4 Visual Format profile : Advanced Simple@L5 Format settings, BVOP : 1 Format settings, QPel : No Format settings, GMC : No warppoints Format settings, Matrix : Custom Codec ID : XVID Codec ID/Hint : XviD Duration : 1h 30mn Bit rate : 982 Kbps Width : 720 pixels Height : 544 pixels Display aspect ratio : 4:3 Frame rate : 23.976 fps Color space : YUV Chroma subsampling : 4:2:0 Bit depth : 8 bits Scan type : Progressive Compression mode : Lossy Bits/(Pixel*Frame) : 0.105 Stream size : 633 MiB (91%) Writing library : XviD 1.2.1 (UTC 2008-12-04) Audio #1 ID : 1 Format : MPEG Audio Format version : Version 1 Format profile : Layer 3 Mode : Joint stereo Mode extension : MS Stereo Codec ID : 55 Codec ID/Hint : MP3 Duration : 1h 30mn Bit rate mode : Constant Bit rate : 96.0 Kbps Channel(s) : 2 channels Sampling rate : 32.0 KHz Compression mode : Lossy Stream size : 61.9 MiB (9%) Alignment : Aligned on interleaves Interleave, duration : 83 ms (2.00 video frames) Interleave, preload duration : 504 ms Writing library : LAME3.98r Encoding settings : -m j -V 4 -q 2 -lowpass 15.1 -b 96 Language : Espanol
 
1 archivo de 91.5 MB y 3 archivos de 200 MB + 1 archivo de recuperación de 200 MB TOTAL 891 MB

Código:
Elena es una joven y bella escritora americana  que decide viajar a París. Allí conoce a un grupo de artistas que la  
introducen en el mundo de la noche parisina, entre ellos Lawrence, un  famoso novelista con el que inicia una relación apasionada. 
Un día Elena  ve como Lawrence manosea a una prostituta y decide romper con él. Sin  dinero debe posar desnuda para unas clases 
de dibujo, pero lo que quiere  realmente es vender sus relatos. Le proponen escribir historias sobre  emociones fuertes para un particular. 
Elena accede y así comienza su  odisea por el laberinto de sus propios deseos carnale.







 


DESCARGAS
[Only registered and activated users can see links. ]


COMPARTIR
[Only registered and activated users can see links. ]


4 PARTES + 1 de RECUPERACION

 




Pass
Para el "Pasted"
Wow
Pass
Para descomprimir el pass es:
sin las comillas y todo en minuscula

MAS DETALLES:
[Only registered and activated users can see links. ]



[Only registered and activated users can see links. ]