Titulo Original: El profesor Hippie
País: Argentina
Año: 1969.
Duración: 99 min.
Género: Comedia / Musical.
Interpretación: Luis Sandrini, Roberto Escalada, Soledad Silveyra, Oscar Orlegui, Alita Román, Eduardo Muñoz, Perla Santalla, Zelmar Gueñol, Carlos López, Monet Flora Steinberg, David Tonelli, Pablo Alarcón.



Código:
Audio: Español-Neutro
Subtitulos: NO
Formato: MP4 (DivX - DVDRip)
Tamaño: 250MB (la pelicula)
[SPOILER C/MARCO]
C:\Documents and Settings\Lagarto\Desktop\Descargas\Pelis DVD\DivX\1. El Profesor Hippie (1969).mp4
   General
      Complete name : C:\Documents and Settings\Lagarto\Desktop\Descargas\Pelis DVD\DivX\1. El Profesor Hippie (1969).mp4
      Format : MPEG-4
      Format profile : Base Media / Version 2
      Codec ID : mp42
      File size : 252 MiB
      Duration : 1h 32mn
      Overall bit rate mode : Variable
      Overall bit rate : 379 Kbps
      Encoded date : UTC 2013-12-25 14:28:13
      Tagged date : UTC 2013-12-25 14:28:13
      gsst : 0
      gstd : 5575365
   Video #1
      ID : 1
      Format : AVC
      Format/Info : Advanced Video Codec
      Format profile : Baseline@L2.1
      Format settings, CABAC : No
      Format settings, ReFrames : 1 frame
      Codec ID : avc1
      Codec ID/Info : Advanced Video Coding
      Duration : 1h 32mn
      Bit rate : 280 Kbps
      Maximum bit rate : 1 159 Kbps
      Width : 384 pixels
      Height : 288 pixels
      Display aspect ratio : 4:3
      Frame rate mode : Constant
      Frame rate : 25.000 fps
      Color space : YUV
      Chroma subsampling : 4:2:0
      Bit depth : 8 bits
      Scan type : Progressive
      Bits/(Pixel*Frame) : 0.101
      Stream size : 186 MiB (74%)
      Tagged date : UTC 2013-12-25 14:29:42
   Audio #2
      ID : 2
      Format : AAC
      Format/Info : Advanced Audio Codec
      Format profile : LC
      Codec ID : 40
      Duration : 1h 32mn
      Bit rate mode : Variable
      Bit rate : 96.0 Kbps
      Maximum bit rate : 103 Kbps
      Channel(s) : 2 channels
      Channel positions : Front: L R
      Sampling rate : 44.1 KHz
      Compression mode : Lossy
      Stream size : 63.8 MiB (25%)
      Title : IsoMedia File Produced by Google, 5-11-2011
      Encoded date : UTC 2013-12-25 14:29:00
      Tagged date : UTC 2013-12-25 14:29:42
[/SPOILER C/MARCO]

1 archivo de 250MB 

Código:
Un profesor de un colegio nacional de ideas renovadoras, se enfrenta con los directivos para que los alumnos puedan realizar 
un festival artístico en el salón de la escuela.





 


DESCARGAS
[Solo los usuarios registrados pueden ver los links. ]


COMPARTIR
[Solo los usuarios registrados pueden ver los links. ]


1 PARTE

 




Pass
Para el "Pasted"
Wow
Pass
Para descomprimir el pass es:
sin las comillas y todo en minuscula

MAS DETALLES:
[Solo los usuarios registrados pueden ver los links. ]



[Solo los usuarios registrados pueden ver los links. ]