Titulo Original: El profesor Patagonico
País: Argentina
Año: 1970.
Duración: 102 min.
Género: Comedia / Musical.
Interpretación: Luis Sandrini, Gabriela Gili, Piero, Homero Carpena, Juan y Juan, José Luis Mazza, Pedro Quartucci.



Código:
Audio: Español-Neutro
Subtitulos: NO
Formato: MP4 (DivX - DVDRip)
Tamaño: 276.6MB (la pelicula)
[SPOILER C/MARCO]
C:\Documents and Settings\Lagarto\Desktop\Descargas\Pelis DVD\DivX\2. El Profesor Patagónico (1970).mp4
   General
      Complete name : C:\Documents and Settings\Lagarto\Desktop\Descargas\Pelis DVD\DivX\2. El Profesor Patagónico (1970).mp4
      Format : MPEG-4
      Format profile : Base Media / Version 2
      Codec ID : mp42
      File size : 279 MiB
      Duration : 1h 36mn
      Overall bit rate mode : Variable
      Overall bit rate : 404 Kbps
      Encoded date : UTC 2015-08-16 08:58:00
      Tagged date : UTC 2015-08-16 08:58:00
      gsst : 0
      gstd : 5785855
   Video #1
      ID : 1
      Format : AVC
      Format/Info : Advanced Video Codec
      Format profile : Baseline@L3.0
      Format settings, CABAC : No
      Format settings, ReFrames : 1 frame
      Format settings, GOP : M=1, N=60
      Codec ID : avc1
      Codec ID/Info : Advanced Video Coding
      Duration : 1h 36mn
      Bit rate : 306 Kbps
      Maximum bit rate : 1 067 Kbps
      Width : 640 pixels
      Height : 320 pixels
      Display aspect ratio : 2.000
      Frame rate mode : Constant
      Frame rate : 29.970 fps
      Color space : YUV
      Chroma subsampling : 4:2:0
      Bit depth : 8 bits
      Scan type : Progressive
      Bits/(Pixel*Frame) : 0.050
      Stream size : 211 MiB (76%)
      Tagged date : UTC 2015-08-16 08:58:40
   Audio #2
      ID : 2
      Format : AAC
      Format/Info : Advanced Audio Codec
      Format profile : LC
      Codec ID : 40
      Duration : 1h 36mn
      Bit rate mode : Variable
      Bit rate : 96.0 Kbps
      Maximum bit rate : 103 Kbps
      Channel(s) : 2 channels
      Channel positions : Front: L R
      Sampling rate : 44.1 KHz
      Compression mode : Lossy
      Stream size : 66.2 MiB (24%)
      Title : IsoMedia File Produced by Google, 5-11-2011
      Encoded date : UTC 2015-08-16 08:58:23
      Tagged date : UTC 2015-08-16 08:58:40
[/SPOILER C/MARCO]

1 archivo de 276.6MB 

Código:
El profesor Horacio Tomasino, conocido como el profesor Hippie (Luis Sandrini), ha sido transladado 
al colegio nacional de Esquel, ¡en La Patagonia! En el tren en que viaja, conocerá a Elisa Frías quien también 
llega como directora de una escuela cercana y al cura Raúl (Piero), quien se convertirá en la voz cantante de 
aquella fría pero esplendorosa tierra, donde deberán luchar de nuevo para salir avantes con su proceso educativo.




 


DESCARGAS
[Solo los usuarios registrados pueden ver los links. ]


COMPARTIR
[Solo los usuarios registrados pueden ver los links. ]


1 PARTE

 




Pass
Para el "Pasted"
Wow
Pass
Para descomprimir el pass es:
sin las comillas y todo en minuscula

MAS DETALLES:
[Solo los usuarios registrados pueden ver los links. ]



[Solo los usuarios registrados pueden ver los links. ]